Queen Discography Alac
Phil Thornton - Fire Queen [212 MB in 7 files, MP3] Phil Thornton-Genre New Age [2. Metallica / Japanese SHM-CD Discography- Жанр: Thrash Metal Носитель: SHM-CD Страна производителя дисков: Japan Год издания: 1983-2013 Аудио кодек: ALAC (*. We provide fast downloadable and reliable service for you. She's Very 3. Search for and download any torrent from the pirate bay using search query discography. The group consists of founders Dave. Guns N' Roses - Complete Discography 2008 (320kbps). flac Sing Sing Sing - Benny Goodman Welcome Matt Electro Swing Remix. The list is sorted by user ratings. eu has ranked 9268th in Japan and 64,271 on the world. Daft Punk ALAC\ Dark Class [Discography]\ Dark Princess Olga Romanova - Discography (2005-2007)\ Dawn Of Ashes\ Dead by April\ Deep_Purple-(SHM-CD_Japanese_WPCR-13110-18)\ deftones\ DISTURBED\ Dolmen - Terra Firma (2005)\ Dragonforce\ Dream Theater\ Duran Duran _Дискография\. Reviews "Probably the biggest surprise to listeners is the full sound that the five-man band puts outthe group's signature rhythm section is absolutely hot on well known and not-so-well-known cuts a great addition to their discography that displays a number of classic AWB cuts in a live context and shows the group sounding as good in 2006 as it did in 1976. comMusical career Genres: Pop, R&B, Dance-pop, Reggae, Hip hop Labels: Def Jam, Roc Nation, SRP, Westbury RoadAssociated acts. 2013 You can also request more discographies @ wrathem(dot)com. Find BlackPink discography, albums and singles on AllMusic. (FLAC, ALAC, WAV, AIFF) depending on your needs. 48 GB VA - A State of Trance - Radio Top (FLAC) 42. Queen Discography (2017) Queen. Their 1975 song, "Bohemian Rhapsody", was number 1 for. Originally digitized in 88. Rihanna - Studio Discography [2005 - 2016] [ALAC]Background InformationBorn: Robyn Rihanna Fenty, February 20, 1988, Saint Michael, BarbadosOccupation: Singer, Songwriter, Fashion designer, Model, ActressYears active: 2005 - PresentTotal Size: 3. Funny How Love Is 11. Onika Tanya Maraj (born December 8, 1982), known professionally as Nicki Minaj, is a Trinidadian-born American rapper, singer and songwriter. I was ripping the Queen album "The Game" (MQA-UHQCD from CD Japan) and all but the first track ripped to flac as MQA, but the first track just remained at standard CD 44. Download discography Pink Floyd on site losslessalbums. Phil Thornton - Fire Queen [212 MB in 7 files, MP3] Phil Thornton-Genre New Age [2. 1984 - the smiths - rough cd61 1984 - hatful of hollow - rough cd76 1985 - meat is murder - rough cd 81 1986 - the queen is dead - rough cd96 1986 - the world won't listen - rough cd101 1987 - strangeways, here we come - rough cd106 1987 - louder than bombs - rough cd255 1988 - rank - rough cd126 ultrasonic cd cleaner > dbpoweramp w/ secure rip. Angelus Apatrida - Discography (2006-2015) Country: Spain Genre: Thrash Metal Quality: Mp3, CBR 320 kbps 2006 - Evil Unleashed 2007 - Give 'Em War (+Scans) 2010 - Clockwork (Limited Edition). Among these the top music streaming websites are: * SoundCloud * YouTube * MTV * Spotify. John Frusciante) 2. Direct download via magnet link. Страна: Canada Год выхода: 2006 - 2015 Жанр: Techno Industrial, EBM, Dark Electro Формат: МР3 Битрейт: 320 Kbps. Lossless is available in FLAC and ALAC (For Mac). A Real Hero Flac. 4 MB) Bad Dream Mama. Search for eBooks in the Internet (Revised Edition) [Updated: 8/27/15] by Dhruv_543 39 minutes ago; Pony Has Joined: Hello by WarhoundOne 41 minutes ago; RAP & Hip-Hop Related Request Thread. cue+covers) Length: 53:19 / 44:43 min Tracks: 21 (2 CD) Total Size: 730 MB (+5%) WebSite: discogs. Nio García, Rauw Alejandro & Lenny Tavárez – Mírame (feat. Queen - The Platinum Collection (Japanese Edition) (3CD Box) 4 3 1497. The music, lush in its retro guitar and ethereal three part harmony composition, is clever while introspective, sparking comparison to the likes of Roy Orbison, Cocteau Twins, and contemporaries Warpaint and Angel Olsen. Uploaded 06-02 2014, Size 1. 52 GB Above & Beyond Discography 44. This domain used to be connected to a Wix website. pdf), Text File (. Eat Static - Discography [1992-2020] Death - Discography [1987-2012]. Queen For A Day (Part 2) (instrumental). link/queen-greatest-hits-198120142016-hdtracks-flac-24bit96khzQueen - Greatest Hits I,II,III Platinum Collection 3CDs [3. 1984 - the smiths - rough cd61 1984 - hatful of hollow - rough cd76 1985 - meat is murder - rough cd 81 1986 - the queen is dead - rough cd96 1986 - the world won't listen - rough cd101 1987 - strangeways, here we come - rough cd106 1987 - louder than bombs - rough cd255 1988 - rank - rough cd126 ultrasonic cd cleaner > dbpoweramp w/ secure rip. xyz_SEIMEI2019EP320kbpsMP3. Learn how to reconnect it, or create your own website. Deserted Dunes Welcome Weary Feet 5. Artist = Robbie Williams Origin = Stoke-on-Trent, Staffordshire, England Genre = Pop Rock/Soft Rock/Dance/Alternative Rock Format = Ogg Vorbis (320. com Library and Archives Canada Cataloguing in Publication Atkey, Mel, 1958Broadway north : the dream of a Canadian musical theatre / Mel Atkey ; [foreword by Elaine Campbell]. Download The Doors - Perception [6CD Box Set] (2006) ALAC or any other file from Music category. The Fairy Feller's Master-Stroke 8. Queen - One Vision (Live At Wembley Stadium / July 1986) (05:49) 02. cue Программа-конвертер: CueTools. Big Freedia (pronounced "Free-da") is the undisputed "Queen Diva" of Bounce Music, and performs six or more times a week in various venues throughout her home town of New Orleans. 24 bit flac. Queen is a British rock band formed in London in 1970 from a previously disbanded Smile (6). link/queen-greatest-hits-198120142016-hdtracks-flac-24bit96khzQueen - Greatest Hits I,II,III Platinum Collection 3CDs [3. Related Blog Posts. Identity Theft 5. "We Will Rock You" edition. ac/dc discography. eu has ranked 9268th in Japan and 64,271 on the world. RMM Creation 89,596 views 8:47. Memory Lapse 8. Ogre Battle 7. From Appetite For Destruction to Chinese Democracy. 1984 The Works: 2 23 12. B » audio music mp3 4 months 1064 MB 1 0 AURORA ALAC » audio 7 months 1052 MB 1 1 2016-33 4 years 904 MB 0 0 AOA » video 6 months 823 MB 1 0 SHOW_YA » audio music mp3 8 years 762 MB 0 1. Among these the top music streaming websites are: * SoundCloud * YouTube * MTV * Spotify. Download The Doors - Perception [6CD Box Set] (2006) ALAC or any other file from Music category. Seed & Enjoy. They were very influential to the music and culutre of their time and for that they earned a place in the Rock and Roll Hall of Fame in 2001. Robbie Williams - Partial discography (1998-2018) (Vorbis ~320). Complete Queen discography in FLAC downloads? My wife dragged me to see Bohemian Rhapsody yesterday on our 10th anniversary, and to my surprise (I don't normally like Rock-and-Roll), I really enjoyed it and was moved by it. Queen biography Founded in London, UK in 1971 - Still active as of 2017 QUEEN are a four piece English Art rock band, formerly fronted by the flamboyant Freddie Mercury on vocals and piano, Brian May on guitar, Roger-Meddows-Taylor on drums and John Deacon on bass-guitar. Queen - We Are The Champions - Final Live In Japan (1985 2019) BDRemux 1080i. Part 1 of this interview with archivist Greg Brooks and documentary maker Simon Lupton sees us talk about their revamped book, ‘Freddie Mercury: A Life, In His Own Words’ which was released on September 5th, 2019. Stream ad-free or purchase CD's and MP3s now on Amazon. The group consists of founders Dave. Seed & Enjoy. Deserted Dunes Welcome Weary Feet 5. ) Depeche Mode are an English electronic band that formed in Basildon, Essex in 1980. 970 fps / 16:9 / High Profile 4. com Library and Archives Canada Cataloguing in Publication Atkey, Mel, 1958Broadway north : the dream of a Canadian musical theatre / Mel Atkey ; [foreword by Elaine Campbell]. 2 GiB, ULed by ddirt80: 0: 1: Queen Live Discography 1967-2008 [Mp3 320 kbps] TNT Village. Genres: Hard Rock. Oscar-winning actress Meryl Streep is one of the most esteemed stars of the screen, known for her work in such diverse films as 'Sophie's Choice,' 'The Devil Wears Prada,' 'Mamma Mia!' and 'Doubt. Queen's epic 1973 debut, newly remastered in 2011. This page includes details of all UK album releases from 1973 to 1989, plus the 1993/4 digital remasters, the 1998 Japanese Miniatures, the 2004 Japanese Mini-Vinyls, the 2009/10/15 heavyweight vinyls, and the 2011 CD reissues. 5 thoughts on " No, FLAC Does Not "Sound Better" - Here's What It Actually Is And Why It's Important " Brett December 17, 2012 at 8:36 am. Music lossless for lovers of good sound. The new album, Queen on the Hillside, her seventh full-length album in her own name, is bursting with original music. Discography: Mozart's Le nozze di Figaro (released in February 2014) and Cosi fan tutte, Stravinsky's Les noces and a disc of music by Jean-Philippe Rameau — all recorded by Sony Classical. Sons Of Kemet are born of many vital elements – including a name that nods to ancient Egyptian culture, and a line-up that comprises some of the most progressive 21st-century. Search Torrents Complete Discography (Apple Lossless) Uploaded 08-30 2008, Size 11. Queen is a British rock band formed in London in 1970 from a previously disbanded Smile (6). 67 GB in 213 files, MP3] Phil Thornton - Rhythm of the Rainforest [354 MB in 12 files, FLAC] Eternal Egypt - Phil Thornton, Hossam Ramzy [1996] [100 MB in 7 files, MP3] Immortal Egypt - Phil Thornton, Hossam Ramzy [1998] [152 MB in 11 files, MP3]. Robbie Williams - Discography. The fate of our site directly depends on its relevance. Buxom and shapely 5'2" brunette knockout Abigail Mac was born on June 2, 1988 in Columbia, Maryland. Seven Seas of Rhye. Souyuan by Atrium Carceri, released 19 November 2008 1. Alvin Queen, Jacky Terrasson, Ray Trio, Roy Hargrove Category: Roy. Thievery Corporation - Discography. Description. 1 kHz (Tracks) Artist: Glen Campbell. Burger Queen 2. This list of all albums released as Queen and excluding solo project albums. Artist = Robbie Williams Origin = Stoke-on-Trent, Staffordshire, England Genre = Pop Rock/Soft Rock/Dance/Alternative Rock Format = Ogg Vorbis (320. Hear music the way the artist intended with the highest streaming quality audio. 52 GB ACDC - Discography 1974-2011 [FLAC]45. 0 Total Size: 1. The album was influenced by the hard rock, progressive rock and heavy metal of the day. Listen to this and millions more tracks online. Queen Argentina · 5:26 FLAC stands for Free Lossless Audio Codec, an audio format similar to MP3, but lossless, meaning that audio is compressed in FLAC without any. We have 139 Bring-Me-The-Horizon Other torrents for you!. Supports FLAC, mp3, m4a (Apple Lossless, AAC for iTunes & iPod), Windows Media Audio (wma), Wave and AIFF. 皇后乐队作品(Queen-Studio Discography 15 SACD-R's 1973-1995百度网盘下载,皇后乐队作品(Queen Studio Discography [2001 - 2013] [ALAC] [Pirate. This list of all albums released as Queen and excluding solo project albums. com you can download lossless music in popular formats FLAC, APE, ALAC, MP3, M4A. 52 GB ACDC - Discography 1974-2011 [FLAC]45. Jung Oman 5. The Fourth Colour. London Fanfare Trumpets are a civilian trumpet fanfare team based in the South of England that travel to functions the world over. Get it now! "Don't Give Up" is a song about what we’ve all been going through right now and about keeping our heads up and fighting back together. 1-09-2019, 16:24 Electronic Electronic Club FLAC 16 bit Folk Hard Rock Hi-Res 24 bit Hip-Hop House HQ Sound. Robbie Williams - Discography. We have 139 Bring-Me-The-Horizon Other torrents for you!. Listeners can discover new music and podcasts and you are allowed to share music resource with other users and you can even connect with the artists. Angelus Apatrida - Discography (2006-2015) Country: Spain Genre: Thrash Metal Quality: Mp3, CBR 320 kbps 2006 - Evil Unleashed 2007 - Give 'Em War (+Scans) 2010 - Clockwork (Limited Edition). Seed & Enjoy. His 1986 album, So, is his best-selling release and is certified triple platinum in the. INFORMATION. Wet Paint 9. 4 MiB: 2020-03-22 10:06: 2: 0: 91 [美緒] [FLAC] colate+kamome sano - Goodbye, Friend: 299. Rob Zombie - Discography (1998-2013) {320} vtwin88cube. 8 GB: 502: 0: 0 [3xDVD9-Eng-MultiSub]AC-DC-Plug Me In(Deluxe Edition)By_zape_tabano(SPG UF) 3363 days: 20. ALAC Shawn Mendes - Shawn Mendes (Japan Deluxe Edition) [AppleLossless/ALAC] Discussion in ' Albums (lossless) ' started by felipetxr , Nov 6, 2019. cue Программа-конвертер: CueTools. 6MHz/128fs Download DSD Now one of biggest hits in the history of London's West End, the musical based around Queen's music "WE WILL ROCK YOU", will open at the Paris/Las Vegas. In the autumn of 2013 the chorus took part in the video recording of Purcell's opera The Indian Queen, directed by Peter Sellars and conducted by. Robbie Williams - Partial discography (1997-2019) (Vorbis ~320) Audio Preview. sk\s*Jeeves#i','#HP\s*Web\s*PrintSmart#i','#HTTrack#i','#IDBot#i','#Indy\s*Library#','#ListChecker#i','#MSIECrawler#i','#NetCache#i','#Nutch#i','#RPT-HTTPClient#i','#. DVD drive doesn't recognize music CDs anymore by Lee Koo (ADMIN) CNET staff/forum admin May 1, 2009 2:18AM PDT. m4a" WAVE TRACK 06 AUDIO TITLE "Queen For A Day (Part 2) (instrumental)" PERFORMER "Blackmore's Night" ISRC DEA450302220 INDEX 01 00:00:00 TRACK 07 AUDIO TITLE "Ivory Tower" PERFORMER "Blackmore's Night" ISRC DEA450302230 INDEX 00 01:30:35FILE "07. Learn how to reconnect it, or create your own website. Listen to this and millions more tracks online. The group consists of founders Dave. Added Size S L Health; Greenleaf Discography 2000 - 2016 ak in Discography, by. Born in Saint James, Trinidad and Tobago and raised in South Jamaica, Queens, New York, Minaj earned public attention after releasing three mixtapes between. Don't Fuck With Yoohei Kawakami 10. 50+ videos Play all Mix - Queen Discography On Guitar YouTube AnderMay Guitars Queen Brian May´s Red Special Guitar Replica - Duration: 8:21. Lil Uzi Vert) Mp3 Download 05 Migos - Get Right Witcha Mp3 Download 06 Migos - Slippery (feat. Queen es una banda británica de rock formada en 1970 en Londres por el cantante Freddie Mercury, el guitarrista Brian May, el baterista Roger Taylor y el bajista John Deacon. Already Died. Ra Ra Riot's Wes Miles on Recording at His Parents' House, Learning to be a Frontman, and Falsetto. Queen Kanya 3. 2 GB: 10: 0: 0: Axel Rudi Pell - Discography 1984-2018 (alac) 404 days: 20. I decided to buy this album on cd so I can play it in the car when my Dad and I go out and about. Listen to this and millions more tracks online. It is compatible with many phones (including the iPhone - with an app), portable music players (PMP) including the, and hi-fi. Download The Doors - Perception [6CD Box Set] (2006) ALAC or any other file from Music category. Tracklist: 1. 2014 - Queen Of The Clouds (North American Blueprint Edition) 2016 - Lady Wood (Target Exclusive Edition) 2017 - Blue Lips 2017 - Skin: The Remixes [Flume ft Tove Lo] [Only the "Say it" track is present] 2019 - Sunshine Kitty Other - Blow that smoke [Major Lazer], Close [Nick Jones], Desire [Years & Years],. Nio García, Rauw Alejandro & Lenny Tavárez – Mírame (feat. This All-Digital HD System is equipped with all you need to throw an indoor or outdoor party with built-in collapsible handle and wheels for easy mobility. Horology 8. Georg Friedrich Händel (1685-1759) Entrance of the Queen of Sheba Maurice Ravel (1875-1937) Le Tombeau de Couperin Giuseppe Verdi (1813-1901) La Traviata: Preludio Wolfgang Amadeus Mozart. Страна: Canada Год выхода: 2006 - 2015 Жанр: Techno Industrial, EBM, Dark Electro Формат: МР3 Битрейт: 320 Kbps. Soimah Pancawati) 4. com Library and Archives Canada Cataloguing in Publication Atkey, Mel, 1958Broadway north : the dream of a Canadian musical theatre / Mel Atkey ; [foreword by Elaine Campbell]. Genres: Hard Rock. Originally called Smile, in 1970 singer Freddie Mercury came up with the new name for the band. Eagles Of Death Metal Discography [2004 - 2008] Files: 2004 - Peace, Love, Death Metal. Likely to be feature on many critics’ “best of” lists come the end of 2019, Natalie Mering’s fourth record under her Weyes Blood pseudonym is a long way from the one-woman-and-a-guitar-and-oh-yeah-maybe-a-piano-too school of folky singer-songwriting. Onika Tanya Maraj (born December 8, 1982), known professionally as Nicki Minaj, is a Trinidadian-born American rapper, singer and songwriter. Artist = Robbie Williams Origin = Stoke-on-Trent, Staffordshire, England Genre = Pop Rock/Soft Rock/Dance/Alternative Rock Format = Ogg Vorbis (320. sk\s*Jeeves#i','#HP\s*Web\s*PrintSmart#i','#HTTrack#i','#IDBot#i','#Indy\s*Library#','#ListChecker#i','#MSIECrawler#i','#NetCache#i','#Nutch#i','#RPT-HTTPClient#i','#. Originally called Smile, in 1970 singer Freddie Mercury came up with the new name for the band. Related Blog Posts. 1982 Hot Space: 4 22 11. cue,log,scans) Bitrate: Lossless Time: 15:21:26 Full Size: 6. 67 GB in 213 files, MP3] Phil Thornton - Rhythm of the Rainforest [354 MB in 12 files, FLAC] Eternal Egypt - Phil Thornton, Hossam Ramzy [1996] [100 MB in 7 files, MP3] Immortal Egypt - Phil Thornton, Hossam Ramzy [1998] [152 MB in 11 files, MP3]. Soimah Pancawati) 4. Find BlackPink discography, albums and singles on AllMusic. Tracklist 981 - My Life in the Bush of Ghosts (with Brian Eno) [2006 Remaster] 1981 - My Life in the Bush of Ghosts (with Brian Eno) [Complete Version] 1981 - Songs From The Broadway Production Of The Catherine Wheel 1985 - Music For The Knee Plays (2007 Remaster + Bonus Tracks) 1989 - Rei Momo 1991 - Forestry (Maxi-Single) 1991 - The Forest 1992 - Uh-Oh 1994 - David Byrne 1997 - Feelings 1997. It was recorded at Trident Studios and De Lane Lea Music Centre, London, with production by Roy Thomas Baker (as Roy Baker), John Anthony and Queen. Listen to this and millions more tracks online. We have 1000 FLAC Music torrents for you!. Funny How Love Is 11. Highest quality streaming audio with Amazon Music HD. Vinyl is how listeners first heard the legendary band Queen as the '70s dawned. Downloads J-Rock J-Pop Music MP3/AAC/FLAC/ALAC. Sons Of Kemet are born of many vital elements – including a name that nods to ancient Egyptian culture, and a line-up that comprises some of the most progressive 21st-century. Nirvana - Discography / Rock / ALAC : Скачать: Скачать. Originally called Smile, in 1970 singer Freddie Mercury came up with the new name for the band. Find BlackPink discography, albums and singles on AllMusic. Try Amazon Music HD free for 30 days. John Frusciante) 2. Queen Albums. Andre Antunes 931,580 views. Most 69 year-old rock legends would have been content with releasing a suite of comfy, head-nodding numbers to end their career, but that wasn't Bowie's way: Blackstar is all spiky art. For Freedom 4. 39 GB Pink Floyd - Discography [EAC - FLAC] (oan) 7. Albums in lossless formats such as FLAC and CD Image (. Having enjoyed some exposure following the, FLAC is a musical file format that offers bit-perfect copies of CDs but at half the size. Дополнительная информация: Ozzy Osbourne — британский рок-певец, музыкант, один из основателей и участник группы Black Sabbath, оказавшей значительное влияние на появление таких музыкальных стилей, как хард-рок и хэви-метал. 2 GiB, ULed by ddirt80: 0: 1: Queen Live Discography 1967-2008 [Mp3 320 kbps] TNT Village. Music torrents > Discography torrents (total 929 torrents) : 1 2 3 4 567 8 9 10 11 >> 19. Some Day One Day 5. Your Queen is a Reptile was recorded in London with a host of guests spanning the breadth of the U. cue, log Bitrate: lossless Sample Rate: 16 Bit/44. Related Blog Posts. Queen - Download songs & albums online ♫ ♬ MP3MIXX. FLAC 16 bit / Country / Folk / Discography 12-03-2020, 15:30 162 soundmaster All albums Glen Campbell Quality: FLAC 16 bit / 44. Get access to over 600 exclusive live recordings with a nugs. DJ Khaled) Mp3 Download 02 Migos - T-Shirt Mp3 Download 03 Migos - Call Casting Mp3 Download 04 Migos - Bad and Boujee (feat. pdf), Text File (. Here at Allflac. Soprano Isabel Bayrakdarian explores Cleopatra, Queen of Armenia, wife of Tigranes the Great with Jory Vinikour, Constantine Orbelian & the Kaunas City Symphony | Outstanding Classical Recordings for over 40 Years!. We have 139 Bring-Me-The-Horizon Other torrents for you!. Newly appointed by The Queen as the UK’s 21st poet laureate; Simon Armitage fronts a brand-new band, with respected musicians/producers; Patrick James Pearson and Richard Walters. Artist: Queen Title Of Album: The Ultimate Collection Box (20 CD) Year Of Release: 1995 Label (Catalog#): Parlophone Country: UK Genre: Classic Rock Quality: FLAC (*tracks+. 71 GB Don Henley - Studio Discography (1982-2015) [FLAC] vtwin88cube 2. He also gained much attention from his demos. It is still the same album and should play just fine in windows media player, itunes, on your ipod, zune, or whatever mp3 player you have. Alvin Queen, Jacky Terrasson, Ray Trio, Roy Hargrove Category: Roy. Queen's entire. 1980 The Game: 1 1 9. Abigail Mac, Actress: Vampires. 192KB/S MP3 320KB/S MP3 WAV FLAC ALAC AIFF. FLAC 16 bit / Country / Folk / Discography 12-03-2020, 15:30 162 soundmaster All albums Glen Campbell Quality: FLAC 16 bit / 44. The Loser In The End 6. Queen of Jeans is Philadelphia dreamy crockpot pop. Queen Albums. Nicely done! Is there any chance for a lossless version? It's actually rather tedious to remove all of the extra bits in the BR multitrack and patching things up that are spread all over the place, not to mention keeping track of volume levels and other details. Queen Discography (1973-2004) ALAC + Тексты Queen Discography (1973-2004) (iPod Lossless)Жанр: Rock Страна: United Kingdom Аудио кодек: Apple Lossless Тип рипа: tracks Битрейт аудио: lossless Queen (в переводе с англ. All the singles and albums of Queen, peak chart positions, career stats, week-by-week chart runs and latest news. Thievery Corporation - Discography. the album's most arresting cut is 'The African Queen,' a loping atmospheric piece characterised by an infectious descending horn melody, a mind-blowing. m4a" WAVE TRACK 06 AUDIO TITLE "Queen For A Day (Part 2) (instrumental)" PERFORMER "Blackmore's Night" ISRC DEA450302220 INDEX 01 00:00:00 TRACK 07 AUDIO TITLE "Ivory Tower" PERFORMER "Blackmore's Night" ISRC DEA450302230 INDEX 00 01:30:35FILE "07. 27 GiB, ULed. 1 flac music , Hard Rock , queen » Queen - Greatest Hits [Part 1] [DTS 5. Mahandini 7. After leaving Genesis in 1975, he launched a successful solo career with "Solsbury Hill" as his first single. xyz_SEIMEI2019EP320kbpsMP3. 24 bit flac. I was just browsing around the web and found this article. We have 139 Bring-Me-The-Horizon Other torrents for you!. It is still the same album and should play just fine in windows media player, itunes, on your ipod, zune, or whatever mp3 player you have. And I was asked privately if I thought maybe there was hiss reduction used, and I highly doubted it since Innuendo was a digital recording to begin with, so I did another frequency analysis comparison on KYA, and pretty much the same resultshigh end dropoff and slight low-end boost on the ORB set version. Queen Albums & Singles Timeline This page shows a Queen 'timeline', and lists every Queen album and single, in approximate chronological order. Direct download via magnet link. Zone (feat. FLAC 16 bit / Country / Folk / Discography 12-03-2020, 15:30 162 soundmaster All albums Glen Campbell Quality: FLAC 16 bit / 44. COM - Largest music collection, millions of tracks, fresh music and much more. 99 $ USD 15. Complete Queen discography in FLAC downloads? My wife dragged me to see Bohemian Rhapsody yesterday on our 10th anniversary, and to my surprise (I don’t normally like Rock-and-Roll), I really enjoyed it and was moved by it. UPLOADED [SHARE] • Fall Out Boy - Studio Album Discography 2003-2018 [FLAC] Base64. I was ripping the Queen album "The Game" (MQA-UHQCD from CD Japan) and all but the first track ripped to flac as MQA, but the first track just remained at standard CD 44. 4 MB) Bad Dream Mama. com you can download lossless music in popular formats FLAC, APE, ALAC, MP3, M4A. Hi-Res and HD Music Downloads - an overview of Online Shops for High-Res Music and Studiomaster Download Resources as Flac, WAV, DSD, DXD, AIFF or ALAC 24bit96 USB HiFi and Hi. Oscar-winning actress Meryl Streep is one of the most esteemed stars of the screen, known for her work in such diverse films as 'Sophie's Choice,' 'The Devil Wears Prada,' 'Mamma Mia!' and 'Doubt. FLAC 16 bit / Country / Folk / Discography 12-03-2020, 15:30 162 soundmaster All albums Glen Campbell Quality: FLAC 16 bit / 44. Mahandini 7. Queen - Greatest Hits 24 bit Vinyl Rip Year Of Release: 2018 Genre: Rock Format: Flac , Tracks Bitrate: lossless, 24bit Sample Rate: 96000Hz Audio Channels: 2. Uploaded 04-26 2011, Size 10. link/queen-greatest-hits-198120142016-hdtracks-flac-24bit96khzQueen - Greatest Hits I,II,III Platinum Collection 3CDs [3. Music news like no other site. Complete Queen discography in FLAC downloads? My wife dragged me to see Bohemian Rhapsody yesterday on our 10th anniversary, and to my surprise (I don’t normally like Rock-and-Roll), I really enjoyed it and was moved by it. Blues Theory and Application 2. Free Kpop Music, Korean Drama OST Download MP3 128kbps, 320kbps, iTunes M4a ♫ Free Download lagu K-Pop songs, albums ♫ Download Kpop Song With Album Cover and. Alicia Keys Discography Flac Torrent Rating: 6,5/10 9588reviews Related stories. Identity Theft 5. 「Party Line」など全14曲の試聴・ダウンロード:ハイレゾ音楽配信と音楽記事はOTOTOYで!. Of mixed German and Italian descent, she was involved in the choir, theater, and cheerleading in high school. 2 彩音 ~xi-on~ | Discography: 8. Downloads J-Rock J-Pop Music MP3/AAC/FLAC/ALAC. Artist: ABBA Title Of Album: Discography Year Of Release: 1970-2014 Genre: Pop-Rock, Europop, Disco Quality: MP3 320 kbps Total: 145:14:54 min Total Size: 21,8 Gb. Direct download via magnet link. 04 MB # TRACK TITLE LENGTH CODEC SAMPLE RATE SIZE 1 Kill This Love 03:09 FLAC 44100 / 16 Bit; 1039 kbit/s 23. Soimah Pancawati) 4. Discography by Peter Green (1970-2003, CD Flac) - Release Date: 1970-2003 Genre: Rock Audio Codec: Flac Rip Type: image +. Originally called Smile, in 1970 singer Freddie Mercury came up with the new name for the band. Complete Queen Singles List - Queenpedia. cue, log Bitrate: lossless Sample Rate: 16 Bit/44. Untitled 5. Of mixed German and Italian descent, she was involved in the choir, theater, and cheerleading in high school. Rihanna - Studio Discography [2005 - 2016] [ALAC]Background InformationBorn: Robyn Rihanna Fenty, February 20, 1988, Saint Michael, BarbadosOccupation: Singer, Songwriter, Fashion designer, Model, ActressYears active: 2005 - PresentTotal Size: 3. Download The Doors - Perception [6CD Box Set] (2006) ALAC or any other file from Music category. THIS ALBUM DOWNLOAD FEATURES HIGH RESOLUTION COVER ART ONLY. 0 Total Size: 819. Get help using and troubleshooting common issues with Amazon Music. Originally digitized in 88. Related Blog Posts. We have 1000 FLAC Music torrents for you!. Artist: Queen Title Of Album: The Ultimate Collection Box (20 CD) Year Of Release: 1995 Label (Catalog#): Parlophone Country: UK Genre: Classic Rock Quality: FLAC (*tracks+. 4 MiB: 2020-03-22 10:06: 2: 0: 91 [美緒] [FLAC] colate+kamome sano - Goodbye, Friend: 299. aka_text), Roger Taylor (percussion, vocals), John Anthony (producer), Roy Thomas Baker (assistant producer), Roy Thomas. Robbie Williams - Partial discography (1997-2019) (Vorbis ~320) Audio Preview. info Binary Usenet nzb Search Engine. Apple Lossless quality. Mahandini (HD) by Dewa Budjana feat. 24-bit acoustic array black sabbath blues bob dylan classic rock echo and the bunnymen emerson lake and palmer eric clapton heavy metal jazz jazz fusion jeff beck. 2013 You can also request more discographies @ wrathem(dot)com. 392 days: 21. AURORA Discography (2014-2020) (FLAC) » audio music lossless 4 days 1192 MB 5 3 AURORA ALAC » audio 1 month 1071 MB 0 1 MP3-daily-2020-February-01-R. Angelus Apatrida - Discography (2006-2015) Country: Spain Genre: Thrash Metal Quality: Mp3, CBR 320 kbps 2006 - Evil Unleashed 2007 - Give 'Em War (+Scans) 2010 - Clockwork (Limited Edition). Artist: Queen Title Of Album: The Ultimate Collection Box (20 CD) Year Of Release: 1995 Label (Catalog#): Parlophone Country: UK Genre: Classic Rock Quality: FLAC (*tracks+. Daft Punk ALAC\ Dark Class [Discography]\ Dark Princess Olga Romanova - Discography (2005-2007)\ Dawn Of Ashes\ Dead by April\ Deep_Purple-(SHM-CD_Japanese_WPCR-13110-18)\ deftones\ DISTURBED\ Dolmen - Terra Firma (2005)\ Dragonforce\ Dream Theater\ Duran Duran _Дискография\. She's Very 3. Wet Paint 9. Jung Oman 5. de Mexico 11. John Frusciante) HD Download (24bit/96khz) and CD available now. 45worlds for music, movies, books etc : 45cat for 7" singles : 45spaces for hundreds more worlds for music, movies, books etc : 45cat for 7" singles : 45spaces. Abigail Mac, Actress: Vampires. Apr 29, 2011 · How can I Burn FLAC to CD at best possible quality? I would like to take my Flacs and move them over to a CD-R and keep 99-100% of the sound quality. Robbie Williams - Discography. save hide report. 1 GB Albums: 1997 - Life Thru a Lens 1998 - I've Been Expecting You 2000 - Sing When You're Winning 2001 - Swing When You're Winning 2002 - Escapology 2003 - Live summer 2003 2004 - Greatest Hits 2005 - Intensive Care 2006 - Rudebox 2009 - Reality Killed the Video Star. Listen to this and millions more tracks online. The list of (metal, rock, indie rock, blues, jazz, electronic and more) discographies @ wrathem(dot)com Last Update : 05. The new Meat Beat Manifesto album "Opaque Couché" will be released on May 10th 2019 on CD, vinyl and digital formats. 84 GB Modern Talking - Discography (109 CD) - 1985-2011, FLAC 38. The new Meat Beat Manifesto album "Opaque Couché" will be released on May 10th 2019 on CD, vinyl and digital formats. 8 GB: 502: 0: 0 [3xDVD9-Eng-MultiSub]AC-DC-Plug Me In(Deluxe Edition)By_zape_tabano(SPG UF) 3363 days: 20. Direct download via magnet link. Founded in 1970, Queen released their self-titled debut album in 1973. Queen were one of the longest-lasting and most commercially successful bands to emerge from the British heavy rock scene of the early 1970s, but unlike their contemporaries such as Led Zeppelin, Deep Purple and Black Sabbath, they soon became just as popular with pop fans as fans of hard rock and heavy metal, beginning with "Killer Queen" from. It is still the same album and should play just fine in windows media player, itunes, on your ipod, zune, or whatever mp3 player you have. flac Sing Sing Sing - Benny Goodman Welcome Matt Electro Swing Remix. Stream ad-free or purchase CD's and MP3s now on Amazon. Who Are We?. Download The Doors - Perception [6CD Box Set] (2006) ALAC or any other file from Music category. Year Of Release: 1996-2019 Genre: Pop Format: MP3, Tracks Bitrate: 128-320 bps Total Size: 6. She Loves Control 4. This All-Digital HD System is equipped with all you need to throw an indoor or outdoor party with built-in collapsible handle and wheels for easy mobility. Queen Greatest Hits III [LOSSLESS FLAC]. RMM Creation 89,596 views 8:47. 1986 A Kind Of Magic: 1 46 13. Queen Discography (2017) Queen. 67 GB in 213 files, MP3] Phil Thornton - Rhythm of the Rainforest [354 MB in 12 files, FLAC] Eternal Egypt - Phil Thornton, Hossam Ramzy [1996] [100 MB in 7 files, MP3] Immortal Egypt - Phil Thornton, Hossam Ramzy [1998] [152 MB in 11 files, MP3]. Pandora, enlightened music lovers busily seek out other online sources for their music fix. 皇后乐队作品(Queen-Studio Discography 15 SACD-R's 1973-1995百度网盘下载,皇后乐队作品(Queen Studio Discography [2001 - 2013] [ALAC] [Pirate. Myke Towers, Casper Mágico & Darell) [Remix] – Single [iTunes Plus AAC M4A]. This list of all albums released as Queen and excluding solo project albums. Some - 24bit 5. Artista: Queen Titulo: Queen - Greatest Hits I,II,III Platinum Collection (3CDs). Nio García, Rauw Alejandro & Lenny Tavárez – Mírame (feat. Queen is a British rock band formed in London in 1970 from a previously disbanded Smile (6). A new 18-disc box set, Queen: The Studio Collection, features remastered editions of each of the band's albums, including three records — 1974's Queen II, 1991's Innuendo and 1994's Made in Heaven — that have their tracks spread over two LPs. Формат: ALAC (tracks), Lossless. Studio and Surround are all formatted in FLAC. 01 Migos - Culture (feat. Papillon 03. (Hip-Hop, R&B, Pop) Nicki Minaj - Discography (22 Releases) - 2007-2012, MP3, M4A, 128-320 kbps » Зарубежный Рэп, Хип-Хоп (lossy) :: RuTracker. Into It 11. Скачать Jorn_Lande_-_Discography_1994-2017_alac. 1975 A Night At The Opera: 1 4 5. Real Friends 8. com - A comprehensive Queen Discography, Queen Interviews, Queen History. Стиль: Heavy Metal / Hard Rock / Rock'n'roll Альбомы: 1976 - On Parole 1977 - Motorhead 1979 - Bomber 1979 - Overkill 1980 - Ace Of Spades 1982 - Iron Fist 1983 - Another Perfect Day. Queen - We Are The Champions - Final Live In Japan (1985 2019) BDRemux 1080i. 1986 A Kind Of Magic: 1 46 13. 97 GB The Doors - Bootlegs 33. Music torrents > Discography torrents (total 929 torrents) : 1 2 3 4 567 8 9 10 11 >> 19. All These Years 3. 1975 A Night At The Opera: 1 4 5. Likely to be feature on many critics’ “best of” lists come the end of 2019, Natalie Mering’s fourth record under her Weyes Blood pseudonym is a long way from the one-woman-and-a-guitar-and-oh-yeah-maybe-a-piano-too school of folky singer-songwriting. 1 kHz Tracklist: Albums: 1984 - / CD Flac, Discography, Lossless, KaRaMusic. Lil Uzi Vert) Mp3 Download 05 Migos - Get Right Witcha Mp3 Download 06 Migos - Slippery (feat. Jordan Rudess, Marco Minnemann, Mohini Dey, John Frusciante, released 10 December 2018 1. (Hip-Hop, R&B, Pop) Nicki Minaj - Discography (22 Releases) - 2007-2012, MP3, M4A, 128-320 kbps » Зарубежный Рэп, Хип-Хоп (lossy) :: RuTracker. Queen Discography (2017) Queen. Studio and Surround are all formatted in FLAC. Queen – The Discography (1973-2015) 15 Studio Albums, 11 Live Albums, 13 Compilation, 63 Singles, 2 Collaboration, 7 Box Set, 243 issues, 336 CD. 1974 Sheer Heart Attack: 2 12 4. Nio García, Rauw Alejandro & Lenny Tavárez – Mírame (feat. com you can download lossless music in popular formats FLAC, APE, ALAC, MP3, M4A. We have 2 Nicki-Minaj-Discography Music torrents for you!. Eat Static - Discography [1992-2020] Death - Discography [1987-2012]. White Queen (As It Began) 4. 1991), guitarist Brian May, drummer Roger Taylor, and bassist John Deacon (r. ABBA are a Swedish pop group formed in Stockholm in 1972 by Agnetha Fältskog, Björn Ulvaeus, Benny Andersson and Anni-Frid Lyngstad. "Queen" is the eponymous debut studio album by British rock band Queen, released in July 1973. Georg Friedrich Händel (1685-1759) Entrance of the Queen of Sheba Maurice Ravel (1875-1937) Le Tombeau de Couperin Giuseppe Verdi (1813-1901) La Traviata: Preludio Wolfgang Amadeus Mozart. 99 EUR : MP3: 12. We have 1000 FLAC Music torrents for you!. link/queen-greatest-hits-198120142016-hdtracks-flac-24bit96khzQueen - Greatest Hits I,II,III Platinum Collection 3CDs [3. Queen, an Album by Queen. Queen - Discografia ( 15 Álbuns, 20 Singles, 10 Box sets + Bônus ) ( 1973 / 2017 ) ( MP3 ) (Torrent) [ MP3 / Classic Rock / Hard Rock / 320 kbps ] Grupo britânico de rock que atuou entre 1970 e 1991. COM - Largest music collection, millions of tracks, fresh music and much more. Hi-Res and HD Music Downloads - an overview of Online Shops for High-Res Music and Studiomaster Download Resources as Flac, WAV, DSD, DXD, AIFF or ALAC 24bit96 USB HiFi and Hi. 1984 - the smiths - rough cd61 1984 - hatful of hollow - rough cd76 1985 - meat is murder - rough cd 81 1986 - the queen is dead - rough cd96 1986 - the world won't listen - rough cd101 1987 - strangeways, here we come - rough cd106 1987 - louder than bombs - rough cd255 1988 - rank - rough cd126 ultrasonic cd cleaner > dbpoweramp w/ secure rip. Zone (feat. FLAC 16 bit / Country / Folk / Discography 12-03-2020, 15:30 162 soundmaster All albums Glen Campbell Quality: FLAC 16 bit / 44. ) Depeche Mode are an English electronic band that formed in Basildon, Essex in 1980. Total size 367 MB. 52 GB ACDC - Discography 1974-2011 [FLAC]45. In conjunction with that extravaganza, one of the perennially best-selling rock albums in existence, Queen's GREATEST HITS, is being released in an entirely new version. John Frusciante) 2. 4 MB) Bad Dream Mama. Jung Oman 5. Скачать Jorn_Lande_-_Discography_1994-2017_alac. Originally called Smile, in 1970 singer Freddie Mercury came up with the new name for the band. Океан Ельзи / Дискография- Жанр: Rock Страна: Украина Страна-производитель диска: Россия / Украина Год издания: 1998-2016 Страна исполнителя (группы): Украина Аудио кодек: ALAC (*. Music news like no other site. Your Queen is a Reptile was recorded in London with a host of guests spanning the breadth of the U. 4 MB) Bad Dream Mama. 341 days: 21. The Angelus DOWNLOAD THE AUDIO HERE The Angel of the Lord declared to Mary: And she conceived of the Holy Spirit. It is still the same album and should play just fine in windows media player, itunes, on your ipod, zune, or whatever mp3 player you have. かえりみち [rominized: "Kaerimichi"] Download: ALAC: Rockfile: Link Mexashare. 8 Tracks 4308 Views. In 1972, Queen entered discussions with Trident Studios after being spotted at De Lane Lea Studios by John Anthony. Artist: Queen Title Of Album: The Ultimate Collection Box (20 CD) Year Of Release: 1995 Label (Catalog#): Parlophone Country: UK Genre: Classic Rock Quality: FLAC (*tracks+. This domain used to be connected to a Wix website. Likely to be feature on many critics’ “best of” lists come the end of 2019, Natalie Mering’s fourth record under her Weyes Blood pseudonym is a long way from the one-woman-and-a-guitar-and-oh-yeah-maybe-a-piano-too school of folky singer-songwriting. 2 GB: 10: 0: 0: Axel Rudi Pell - Discography 1984-2018 (alac) 404 days: 20. Queen - Bohemian Rhapsody (The Original Soundtrack) (Compilation) 16 0 5030. Complete Queen discography in FLAC downloads? My wife dragged me to see Bohemian Rhapsody yesterday on our 10th anniversary, and to my surprise (I don’t normally like Rock-and-Roll), I really enjoyed it and was moved by it. Full HD Movies Download. Mahandini 7. Spawning Pool 7. 24-bit acoustic array black sabbath blues bob dylan classic rock echo and the bunnymen emerson lake and palmer eric clapton heavy metal jazz jazz fusion jeff beck. com you can download lossless music in popular formats FLAC, APE, ALAC, MP3, M4A. Tha Carter V is the twelfth studio album by American rapper Lil Wayne. Apple Lossless quality. Something's Gotta Give 9. Mike Stern) 6. He also gained much attention from his demos. Queen biography Founded in London, UK in 1971 - Still active as of 2017 QUEEN are a four piece English Art rock band, formerly fronted by the flamboyant Freddie Mercury on vocals and piano, Brian May on guitar, Roger-Meddows-Taylor on drums and John Deacon on bass-guitar. Download File Flac24 com Queen Bohemian Rhapsody The Original Soundtrack 2018 FLAC WEB rar. It was recorded at Trident Studios and De Lane Lea Music Centre, London, with production by Roy Thomas Baker (as Roy Baker), John Anthony and Queen. Queen - Live At Wembley Stadium. The album was influenced by the hard rock, progressive rock and heavy metal of the day. In the autumn of 2013 the chorus took part in the video recording of Purcell's opera The Indian Queen, directed by Peter Sellars and conducted by. 1 kHz (Tracks) Artist: Glen Campbell. Downloads J-Rock J-Pop Music MP3/AAC/FLAC/ALAC. DJ Khaled) Mp3 Download 02 Migos - T-Shirt Mp3 Download 03 Migos - Call Casting Mp3 Download 04 Migos - Bad and Boujee (feat. Among these the top music streaming websites are: * SoundCloud * YouTube * MTV * Spotify. Apple Lossless (también conocido como Apple Lossless Encoder, ALE, o Apple Lossless Audio Codec, ALAC) es un formato de audio digital comprimido sin pérdida desarrollado por Apple Computer. ac/dc discography. Tetrachromacy 9. In the End 9. John Frusciante) HD Download (24bit/96khz) and CD available now. Download your purchases in a wide variety of formats (FLAC, ALAC, WAV, AIFF) depending on your needs. Rock, Electronic (club and dancing music), Rap, Hip-hop and other music of any style. Free Kpop Music, Korean Drama OST Download MP3 128kbps, 320kbps, iTunes M4a ♫ Free Download lagu K-Pop songs, albums ♫ Download Kpop Song With Album Cover and. Search for and download any torrent from the pirate bay using search query discography. rar Download Doro – Discography: Singles, Remastered 1983-2016 MP3 192kbps, 320kbps Buy premium to set yourself free from limits, it helps site flourish with new music albums and shows your support. COM - Largest music collection, millions of tracks, fresh music and much more. (FLAC, ALAC, WAV, AIFF) depending on your needs. White Queen (As It Began) 4. Listen to this and millions more tracks online. The #1 source for the hottest hip hop songs, mixtapes, videos & news of 2020, updated daily!. Artista: Queen Titulo: Queen - Greatest Hits I,II,III Platinum Collection (3CDs). Consequences 7. Of mixed German and Italian descent, she was involved in the choir, theater, and cheerleading in high school. Queen - Download songs & albums online ♫ ♬ MP3MIXX. 1 GB Albums: 1997 - Life Thru a Lens 1998 - I've Been Expecting You 2000 - Sing When You're Winning 2001 - Swing When You're Winning 2002 - Escapology 2003 - Live summer 2003 2004 - Greatest Hits 2005 - Intensive Care 2006 - Rudebox 2009 - Reality Killed the Video Star. Download Woody Shaw Jazz Trumpet Discography MP3 MP3 TPB torrent for free, Downloads via Magnet Link or FREE Movies online to Watch in LimeTorrents. 47 MB) Online shopping for $0. In 1972, Queen entered discussions with Trident Studios after being spotted at De Lane Lea Studios by John Anthony. :) I am hoping that some kid downloads this and discovers the Smiths, and loves them as much as I did when I was 16. The first single from the record, "Bohemian Rhapsody," became Queen's signature song, and with its bombastic, mock-operatic structure punctuated by heavy metal riffing, it encapsulates their music. I was just browsing around the web and found this article. Queen Sugar Season 1 Complete 720p HDTV x264 [i_c] by ice_cracked: 1 year: 7. Queen was a British rock band circa 1970-today (if you want to be technical). Latest Forum Threads. Their 1975 song, "Bohemian Rhapsody", was number 1 for. Newly appointed by The Queen as the UK’s 21st poet laureate; Simon Armitage fronts a brand-new band, with respected musicians/producers; Patrick James Pearson and Richard Walters. 67 GB in 213 files, MP3] Phil Thornton - Rhythm of the Rainforest [354 MB in 12 files, FLAC] Eternal Egypt - Phil Thornton, Hossam Ramzy [1996] [100 MB in 7 files, MP3] Immortal Egypt - Phil Thornton, Hossam Ramzy [1998] [152 MB in 11 files, MP3]. Seven Seas of Rhye. Where no precise release date is known, the release is listed in it's estimated position (though this could well be inaccurate). Queen History Queen is a British rock band founded in 1970 by its singer, Freddie Mercury, Brian May on guitar, Roger Taylor on drums and John Deacon on bass. cue Программа-конвертер: CueTools. Real Friends 8. Direct download via magnet link. HTTP download also available at fast speeds. FLAC 16 bit / Country / Folk / Discography 12-03-2020, 15:30 162 soundmaster All albums Glen Campbell Quality: FLAC 16 bit / 44. Big - Studio Discography [FLAC] Queen - News Of The World. Queen biography Founded in London, UK in 1971 - Still active as of 2017 QUEEN are a four piece English Art rock band, formerly fronted by the flamboyant Freddie Mercury on vocals and piano, Brian May on guitar, Roger-Meddows-Taylor on drums and John Deacon on bass-guitar. Queen's epic 1973 debut, newly remastered in 2011. Description. Discography by Bon Jovi (1984-2015, CD Flac) - Release Date: 1984-2015 Genre: Rock Audio Codec: Flac Rip Type: image +. 2 GB: 2: 0: 0: UMF_2019_MIAMI_DAY3_RESISTANCE. Written between 1968 and 1970 during the days of Smile, possibly recorded for Queen, Queen II or News of the World Notes [ edit ] ^ The album version is titled "Flash's Theme" while the shorter single release is simply titled "Flash". Lossless is available in FLAC and ALAC (For Mac). 1984 - the smiths - rough cd61 1984 - hatful of hollow - rough cd76 1985 - meat is murder - rough cd 81 1986 - the queen is dead - rough cd96 1986 - the world won't listen - rough cd101 1987 - strangeways, here we come - rough cd106 1987 - louder than bombs - rough cd255 1988 - rank - rough cd126 ultrasonic cd cleaner > dbpoweramp w/ secure rip. Featured peformers: Freddie Mercury (vocals, piano, cover design), Brian May (guitar, piano, vocals, cover design), John Deacon (aka_text {bass guitar} role_id 1075. Soprano Isabel Bayrakdarian explores Cleopatra, Queen of Armenia, wife of Tigranes the Great with Jory Vinikour, Constantine Orbelian & the Kaunas City Symphony | Outstanding Classical Recordings for over 40 Years!. Name: Camila Cabello - Camila Genre: Pop Year: 2018 Format: Mp3 320 kbps Size: 100 Mb Description: Studio Album! Tracklist: 1. Untitled 5. 90 GB The Doors - Discography (1966-2013) [Flac]45. John Frusciante) HD Download (24bit/96khz) and CD available now. In the autumn of 2013 the chorus took part in the video recording of Purcell's opera The Indian Queen, directed by Peter Sellars and conducted by. Ogre Battle 7. Papillon 03. The Loser In The End 6. BONUS includes the CD of 'Mahandini'! Includes unlimited streaming of Mahandini (HD) via the free Bandcamp app, plus high-quality download in MP3, FLAC and more. Search for eBooks in the Internet (Revised Edition) [Updated: 8/27/15] by Dhruv_543 39 minutes ago; Pony Has Joined: Hello by WarhoundOne 41 minutes ago; RAP & Hip-Hop Related Request Thread. 8 Tracks 4308 Views. Hyang Giri (feat. The fate of our site directly depends on its relevance. Jorn Lande - Дискография (1994-2017) ALAC. Queen, an Album by Queen. Oscar-winning actress Meryl Streep is one of the most esteemed stars of the screen, known for her work in such diverse films as 'Sophie's Choice,' 'The Devil Wears Prada,' 'Mamma Mia!' and 'Doubt. Posted by 3 days ago. This section has the Queen albums discography. Music Direct reserves the right to select the carrier and ship method within the terms of this offer. All the singles and albums of Queen, peak chart positions, career stats, week-by-week chart runs and latest news. cue+covers) Length: 53:19 / 44:43 min Tracks: 21 (2 CD) Total Size: 730 MB (+5%) WebSite: discogs. Discography; 380 Releases 69 Albums 153 Singles & EPs 104. A raucous listen end-to-end, Mean Well, sees the band pack extreme musicianship into a tidy ten-song package: drummer Nick Charlton provides an insane sense of rhythm, often playing well across the bars, diving into poly-rhythms and. Скачать Jorn_Lande_-_Discography_1994-2017_alac. Queen - The Discography (1973-2015) 15 Studio Albums, 11 Live Albums, 13 Compilation, 63 Singles, 2 Collaboration, 7 Box Set, 243 issues, 336 CD. Lil Uzi Vert) Mp3 Download 05 Migos - Get Right Witcha Mp3 Download 06 Migos - Slippery (feat. She started out in the adult entertainment industry as a web-cam girl. Album and Track Releases. 67 GB in 213 files, MP3] Phil Thornton - Rhythm of the Rainforest [354 MB in 12 files, FLAC] Eternal Egypt - Phil Thornton, Hossam Ramzy [1996] [100 MB in 7 files, MP3] Immortal Egypt - Phil Thornton, Hossam Ramzy [1998] [152 MB in 11 files, MP3]. 90 GB The Doors - Discography (1966-2013) [Flac]45. Queen Discography (1973-2004) ALAC + Тексты Queen Discography (1973-2004) (iPod Lossless)Жанр: Rock Страна: United Kingdom Аудио кодек: Apple Lossless Тип рипа: tracks Битрейт аудио: lossless Queen (в переводе с англ. It is due to be released on September 28, 2018 by Young Money Entertainment and Republic Records. Страна: Canada Год выхода: 2006 - 2015 Жанр: Techno Industrial, EBM, Dark Electro Формат: МР3 Битрейт: 320 Kbps. Founded in 1970, Queen released their self-titled debut album in 1973. Her first job was as a hostess at a restaurant while in high school. 50+ videos Play all Mix - Queen Discography On Guitar YouTube AnderMay Guitars Queen Brian May´s Red Special Guitar Replica - Duration: 8:21. It All Depends. Apple Lossless (también conocido como Apple Lossless Encoder, ALE, o Apple Lossless Audio Codec, ALAC) es un formato de audio digital comprimido sin pérdida desarrollado por Apple Computer. 2 - The '70s, '80s, '90s Genre: R&B Release Date: 2018-08-10 www publisher: hd24bit. 1 GB Albums: 1997 - Life Thru a Lens 1998 - I've Been Expecting You 2000 - Sing When You're Winning 2001 - Swing When You're Winning 2002 - Escapology 2003 - Live summer 2003 2004 - Greatest Hits 2005 - Intensive Care 2006 - Rudebox 2009 - Reality Killed the Video Star. Written between 1968 and 1970 during the days of Smile, possibly recorded for Queen, Queen II or News of the World Notes [ edit ] ^ The album version is titled "Flash's Theme" while the shorter single release is simply titled "Flash". Buxom and shapely 5'2" brunette knockout Abigail Mac was born on June 2, 1988 in Columbia, Maryland. comMusical career Genres: Pop, R&B, Dance-pop, Reggae, Hip hop Labels: Def Jam, Roc Nation, SRP, Westbury RoadAssociated acts. Each has its benefits, as well as downsides, so finding the right one for your needs and wants can take a lot of overwhelming research. Queen - One Vision (Live At Wembley Stadium / July 1986) (05:49) 02. 52 GB Above & Beyond Discography 44. A Real Hero Flac. Complete Queen Singles List - Queenpedia. Funny How Love Is 11. Queen - We Are The Champions - Final Live In Japan (1985 2019) BDRemux 1080i. It is due to be released on September 28, 2018 by Young Money Entertainment and Republic Records. The track listing consists in a mix of classical pieces, covers from both Queen and Led Zeppelin, from her past band Nightwish. Alvin Queen, Jacky Terrasson, Ray Trio, Roy Hargrove Category: Roy. John Frusciante) 2. "Queen" is the eponymous debut studio album by British rock band Queen, released in July 1973. Available for shipping now. Within Temptation - Discography (1997 - 2013) (Lossless) (2013, Sympho Gothic Metal) - Download for free via torrent - Metal Tracker. British rock band Queen consisted of vocalist Freddie Mercury (d. Added Size S L Health; Greenleaf Discography 2000 - 2016 ak in Discography, by. com you can download lossless music in popular formats FLAC, APE, ALAC, MP3, M4A. 1974 Queen II: 5 49 3. Queen Latifah - Dance For Me 33b. The double vinyl will come in two flavors - regular black vinyl and a limited-edition opaque couché (brown) picture disc (300 copies worldwide) in association with the UK's Electronic Sound magazine. Remastered by Queen producer/engineer Justin Shirley-Smith! New liner notes by the band! Track by track insights by the people who were at creation!. Stupid Love 04. David Bowie's 25th and final studio album, released two days before his death, Blackstar feels like a knowing final nod to the world, a parting gift for fans - and Bowie at some of his inventive best. m4a" WAVE TRACK 06 AUDIO TITLE "Queen For A Day (Part 2) (instrumental)" PERFORMER "Blackmore's Night" ISRC DEA450302220 INDEX 01 00:00:00 TRACK 07 AUDIO TITLE "Ivory Tower" PERFORMER "Blackmore's Night" ISRC DEA450302230 INDEX 00 01:30:35FILE "07. Lil Uzi Vert) Mp3 Download 05 Migos - Get Right Witcha Mp3 Download 06 Migos - Slippery (feat. Refer to the free MP3 download sites, SoundCloud is the exactly right place you should visit. Originally digitized in 88. 1kHz/24bit] Iron Maiden - The Studio Collection, Part 1, 2, 3 [1980-2000, Remastered 2015] (2018/2019) FLAC Jimi Hendrix - Electric Ladyland (2018) [96kHz/24bit]. Founded in 1970, Queen released their self-titled debut album in 1973. Year Of Release: 1997-2020 Genre: Trip-Hop, Downtempo, Future Jazz, Dub, Lounge Format: Flac, Tracks | Tracks & Image +. Best Torrent Sites. The new album, Queen on the Hillside, her seventh full-length album in her own name, is bursting with original music. 05 1,268 익명 DOWNLOAD Billboard Hot 100 [December 7,2019] FLAC, 24-bit Songs [SymBiOTes]. pdf), Text File (. Complete Queen Singles List - Queenpedia. 71 GB Don Henley - Studio Discography (1982-2015) [FLAC] vtwin88cube 2. Untitled 5. Discography. 1 flac music , Hard Rock , queen » Queen - Greatest Hits [Part 1] [DTS 5. Queen es una banda británica de rock formada en 1970 en Londres por el cantante Freddie Mercury, el guitarrista Brian May, el baterista Roger Taylor y el bajista John Deacon. The Smiths' Complete discography, ripped from master CDs from my cousin's collection. Artist = Robbie Williams Origin = Stoke-on-Trent, Staffordshire, England Genre = Pop Rock/Soft Rock/Dance/Alternative Rock Format = Ogg Vorbis (320. Into It 11. Search Torrents Complete Discography (Apple Lossless) Uploaded 08-30 2008, Size 11. 31 GB : Download Music: The Beatles Discography [MP3 - 14 Remastered Stereo Albums - 320kbps] (2016) The Beatles Discography [MP3 / 14 Remastered Stereo Albums / 320kbps] Mp3 1. Queen - Discography (1973-2016) 8 8 2363. DVD drive doesn't recognize music CDs anymore by Lee Koo (ADMIN) CNET staff/forum admin May 1, 2009 2:18AM PDT. The band formed in London in 1970 after May and Taylor's former band Smile split after having released an album and single.